<?xml version="1.0" standalone="no"?>
<!DOCTYPE svg PUBLIC "-//W3C//DTD SVG 1.1//EN" "http://www.w3.org/Graphics/SVG/1.1/DTD/svg11.dtd">
<svg xmlns="http://www.w3.org/2000/svg">
<metadata>Copyright (C) 2019 by original authors @ fontello.com</metadata>
<defs>
<font id="t_thin_font" horiz-adv-x="1000" >
<font-face font-family="t_thin_font" font-weight="400" font-stretch="normal" units-per-em="1000" ascent="850" descent="-150" />
<missing-glyph horiz-adv-x="1000" />
<glyph glyph-name="cat-bullet" unicode="&#xe800;" d="M991 372c-1 1-217 219-217 219-7 6-15 9-23 9-1 0-1 0-1 0h-719c-27 0-41-35-22-54l195-197-193-194c-21-19-11-55 27-55h712c8-1 17 2 24 9l217 219c12 12 12 32 0 44z m-252-209l-631 0 162 164c7 6 10 14 10 22 0 9-3 17-10 23l-164 166h632l186-188-185-187z" horiz-adv-x="1000" />

<glyph glyph-name="down-open-mini" unicode="&#xe801;" d="M405 470q22 26 48 0 26-22 0-48l-196-192q-22-22-48 0l-196 192q-26 26 0 48 24 24 50 0l170-156z" horiz-adv-x="466" />

<glyph glyph-name="up-open-mini" unicode="&#xe802;" d="M62 230q-26-22-50 0-24 24 0 50l196 190q26 26 48 0l196-190q24-26 0-50-24-22-50 0l-170 158z" horiz-adv-x="464" />

<glyph glyph-name="home" unicode="&#xe803;" d="M994 242l-442 488c-14 15-32 23-52 23 0 0 0 0 0 0-20 0-38-8-52-23l-441-488c-10-10-9-26 1-35 5-5 11-7 17-7 7 0 14 3 19 8l106 118v-401c0-41 34-75 75-75h550c41 0 75 34 75 75v401l107-118c9-10 25-11 35-1 10 9 11 25 2 35z m-394-342h-200v225c0 14 11 25 25 25h150c14 0 25-11 25-25v-225z m200 25c0-14-11-25-25-25h-125v225c0 41-34 75-75 75h-150c-41 0-75-34-75-75v-225h-125c-14 0-25 11-25 25v456l285 315c4 5 9 7 15 7s11-2 15-7l285-315v-456z" horiz-adv-x="1000" />

<glyph glyph-name="lock" unicode="&#xe80f;" d="M725 450h-25v75c0 124-101 225-225 225s-225-101-225-225v-75h-25c-41 0-75-34-75-75v-400c0-41 34-75 75-75h500c41 0 75 34 75 75v400c0 41-34 75-75 75z m-425 75c0 97 79 175 175 175s175-78 175-175v-75h-350v75z m450-550c0-14-11-25-25-25h-500c-14 0-25 11-25 25v400c0 14 11 25 25 25h500c14 0 25-11 25-25v-400z" horiz-adv-x="1000" />

<glyph glyph-name="wish" unicode="&#xe813;" d="M475-100c-4 0-8 1-12 3-5 3-116 65-230 168-67 60-120 122-159 184-49 78-74 157-74 233 0 144 118 262 263 262 49 0 101-18 146-52 27-19 49-43 66-68 17 25 39 49 66 68 46 34 98 52 147 52 144 0 262-118 262-262 0-76-25-155-74-233-39-62-92-124-159-184-114-103-225-165-230-168-4-2-8-3-12-3z m-212 800c-118 0-213-95-213-212 0-152 118-291 216-380 88-79 177-135 209-154 32 19 121 75 209 154 99 89 216 228 216 380 0 117-95 212-212 212-86 0-168-70-189-133-4-10-13-17-24-17s-20 7-24 17c-21 63-103 133-188 133z" horiz-adv-x="1000" />

<glyph glyph-name="mail" unicode="&#xe818;" d="M875 550h-800c-41 0-75-34-75-75v-450c0-41 34-75 75-75h800c41 0 75 34 75 75v450c0 41-34 75-75 75z m0-50c2 0 3 0 4 0l-376-251c-15-10-41-10-56 0l-376 251c1 0 3 0 4 0h800z m0-500h-800c-14 0-25 11-25 25v428l370-246c15-10 35-16 55-16s40 6 56 16l369 246v-428c0-14-11-25-25-25z" horiz-adv-x="1000" />

<glyph glyph-name="img" unicode="&#xe827;" d="M925-150h-850c-41 0-75 34-75 75v850c0 41 34 75 75 75h850c41 0 75-34 75-75v-850c0-41-34-75-75-75z m-850 950c-14 0-25-11-25-25v-850c0-14 11-25 25-25h850c14 0 25 11 25 25v850c0 14-11 25-25 25h-850z m575-400c-55 0-100 45-100 100s45 100 100 100 100-45 100-100-45-100-100-100z m0 150c-28 0-50-22-50-50s22-50 50-50 50 22 50 50-22 50-50 50z m225 200h-750c-14 0-25-11-25-25v-600c0-14 11-25 25-25h750c14 0 25 11 25 25v600c0 14-11 25-25 25z m-725-484l161 180c4 5 9 7 15 7 5 0 11-2 15-7l277-296h-468v116z m700-116h-164l-309 331c-13 14-32 23-52 22-20 0-38-8-52-24l-123-138v359h700v-550z" horiz-adv-x="1000" />

<glyph glyph-name="user" unicode="&#xe82a;" d="M475 300c-152 0-275 123-275 275s123 275 275 275 275-123 275-275-123-275-275-275z m0 500c-124 0-225-101-225-225s101-225 225-225c124 0 225 101 225 225s-101 225-225 225z m400-950h-800c-41 0-75 34-75 75 0 3 1 84 61 165 36 47 84 84 144 111 73 33 164 49 270 49 106 0 197-16 270-49 60-27 109-64 144-111 60-81 61-162 61-165 0-41-34-75-75-75z m-400 350c-174 0-303-48-372-138-52-67-53-136-53-137 0-14 11-25 25-25h800c14 0 25 11 25 25 0 1-1 70-53 137-69 90-198 138-372 138z" horiz-adv-x="1000" />

<glyph glyph-name="cart" unicode="&#xe82e;" d="M400-150c-55 0-100 45-100 100s45 100 100 100 100-45 100-100-45-100-100-100z m0 150c-28 0-50-22-50-50s22-50 50-50 50 22 50 50-22 50-50 50z m350-150c-55 0-100 45-100 100s45 100 100 100 100-45 100-100-45-100-100-100z m0 150c-28 0-50-22-50-50s22-50 50-50 50 22 50 50-22 50-50 50z m127 627c-13 15-31 23-52 23h-612l-5 30c-7 39-43 70-83 70h-50c-14 0-25-11-25-25s11-25 25-25h50c15 0 31-13 34-28l83-502c7-39 43-70 83-70h500c14 0 25 11 25 25s-11 25-25 25h-500c-15 0-31 13-34 28l-12 74 498 44c39 3 75 36 81 74l33 202c4 20-1 40-14 55z m-35-47l-33-202c-3-15-20-31-36-32l-502-44-50 298h604c6 0 11-2 14-6 3-3 4-8 3-14z" horiz-adv-x="1000" />

<glyph glyph-name="phone-1" unicode="&#xe830;" d="M800-150c-89 0-183 25-280 75-90 45-178 111-256 189-78 78-143 166-189 256-49 97-74 191-74 280 0 57 53 113 76 134 33 31 85 66 123 66 19 0 41-12 69-39 22-19 46-46 70-77 14-18 86-113 86-159 0-37-42-63-87-91-17-10-35-21-48-32-14-11-16-17-17-18 48-118 193-263 311-311 1 1 7 3 18 17 11 13 22 31 32 48 28 45 54 87 91 87 46 0 141-72 159-86 31-24 58-48 77-70 27-28 39-50 39-69 0-38-35-90-66-123-21-23-77-77-134-77z m-600 950c-14 0-50-17-89-53-37-34-60-71-60-97 0-336 413-750 749-750 26 0 63 23 97 61 36 39 53 75 53 89-2 9-28 46-100 102-62 47-112 73-125 73-1 0-6-2-18-17-9-12-20-29-30-46-28-46-55-89-93-89-6 0-12 1-18 4-131 52-287 208-339 339-6 16-7 40 24 68 16 15 39 29 61 43 17 10 34 21 46 30 15 12 17 17 17 18 0 13-26 63-73 125-56 72-93 98-102 100z" horiz-adv-x="1000" />

<glyph glyph-name="phone" unicode="&#xe831;" d="M895 405c-52 0-147 19-176 48-18 18-22 41-26 59-4 23-7 29-16 34-46 19-110 30-178 30-67 0-131-11-176-30-9-4-12-11-16-33-3-18-7-41-26-59-16-16-50-28-76-34-34-9-69-14-98-14-34 0-56 7-69 20-19 19-32 46-34 73-2 23 2 57 34 88 51 51 120 91 204 118 78 26 166 39 256 39 90 0 179-13 258-39 85-28 154-68 206-120 52-52 39-122 0-161-12-13-35-19-67-19z m-396 221c75 0 145-12 197-35 36-15 42-46 46-69 3-14 5-26 12-33 13-13 86-34 141-34 24 0 31 4 32 5 16 16 35 54 0 90-91 90-251 144-429 144-177 0-336-53-425-142-14-15-21-31-19-49 1-15 8-31 19-42 1 0 9-5 34-5 55 0 127 21 139 33 7 7 9 19 12 33 4 23 10 55 46 70 51 22 120 34 195 34z m326-676h-650c-33 0-64 13-87 37-23 24-34 56-32 89 0 4 6 95 63 187 34 55 79 98 134 129 68 39 151 58 247 58s179-19 247-58c55-31 100-74 134-129 58-92 63-183 63-187 2-33-9-65-32-89s-53-37-87-37z m-325 450c-156 0-269-54-337-162-52-81-57-164-57-165-2-19 5-38 18-51s31-22 51-22h650c20 0 38 8 51 22 13 13 20 32 19 52-1 0-6 83-57 164-69 108-182 162-338 162z m0-350c-83 0-150 67-150 150s67 150 150 150 150-67 150-150-67-150-150-150z m0 250c-55 0-100-45-100-100s45-100 100-100c55 0 100 45 100 100s-45 100-100 100z" horiz-adv-x="1000" />

<glyph glyph-name="comment" unicode="&#xe83f;" d="M25-100c-11 0-21 7-24 18s2 23 11 28c85 51 120 125 132 159-92 71-144 168-144 270 0 52 13 101 38 148 25 45 59 85 104 119 89 70 207 108 333 108s244-38 334-108c44-34 78-74 103-119 25-47 38-96 38-148 0-51-13-101-38-148-25-45-59-85-103-119-90-70-208-108-334-108-52 0-102 7-151 19-21-14-61-39-109-63-75-37-138-56-190-56z m450 800c-234 0-425-146-425-325 0-91 50-178 138-240 8-6 12-16 10-26-6-22-26-82-79-140 65 23 135 62 187 98 6 4 13 6 21 3 47-13 97-20 148-20 234 0 425 146 425 325s-191 325-425 325z" horiz-adv-x="1000" />

<glyph glyph-name="gift" unicode="&#xe844;" d="M925 600h-150c16 21 25 47 25 75 0 69-56 125-125 125-69 0-128-55-156-88-18-20-32-41-44-62-11 21-26 42-44 62-28 33-86 88-156 88-69 0-125-56-125-125 0-28 9-54 25-75h-150c-14 0-25-11-25-25v-150c0-14 11-25 25-25h25v-475c0-41 34-75 75-75h700c41 0 75 34 75 75v475h25c14 0 25 11 25 25v150c0 14-11 25-25 25z m-369 79c40 45 83 71 119 71 41 0 75-34 75-75s-34-75-75-75h-169c9 22 26 52 50 79z m-6-779h-150v650h150v-650z m-350 775c0 41 34 75 75 75 36 0 80-26 119-71 24-27 41-57 50-79h-169c-41 0-75 34-75 75z m-150-125h300v-100h-300v100z m50-625v475h250v-500h-225c-14 0-25 11-25 25z m750 0c0-14-11-25-25-25h-225v500h250v-475z m50 525h-300v100h300v-100z" horiz-adv-x="1000" />

<glyph glyph-name="search" unicode="&#xe86f;" d="M943-108l-297 324c67 70 104 162 104 259 0 100-39 194-110 265s-165 110-265 110-194-39-265-110-110-165-110-265 39-194 110-265 165-110 265-110c86 0 168 29 234 82l298-324c5-5 11-8 18-8 6 0 12 2 17 7 10 9 11 25 1 35z m-893 583c0 179 146 325 325 325s325-146 325-325-146-325-325-325-325 146-325 325z" horiz-adv-x="1000" />

<glyph glyph-name="cancel" unicode="&#xe870;" d="M535 325l283 282c9 10 9 26 0 36-10 9-26 9-36 0l-282-283-282 283c-10 9-26 9-36 0-9-10-9-26 0-36l283-282-283-282c-9-10-9-26 0-36 5-5 12-7 18-7s13 2 18 7l282 283 282-283c5-5 12-7 18-7s13 2 18 7c9 10 9 26 0 36l-283 282z" horiz-adv-x="1000" />

<glyph glyph-name="menu" unicode="&#xe871;" d="M875 550h-750c-14 0-25 11-25 25s11 25 25 25h750c14 0 25-11 25-25s-11-25-25-25z m0-250h-750c-14 0-25 11-25 25s11 25 25 25h750c14 0 25-11 25-25s-11-25-25-25z m0-250h-750c-14 0-25 11-25 25s11 25 25 25h750c14 0 25-11 25-25s-11-25-25-25z" horiz-adv-x="1000" />

<glyph glyph-name="up" unicode="&#xe873;" d="M0 100c0-6 2-13 7-18 10-9 26-9 36 0l432 433 432-433c10-9 26-9 36 0s9 26 0 36l-450 450c-10 9-26 9-36 0l-450-450c-5-5-7-12-7-18z" horiz-adv-x="1000" />

<glyph glyph-name="down" unicode="&#xe874;" d="M0 550c0 6 2 13 7 18 10 9 26 9 36 0l432-433 432 433c10 9 26 9 36 0s9-26 0-36l-450-450c-10-9-26-9-36 0l-450 450c-5 5-7 12-7 18z" horiz-adv-x="1000" />

<glyph glyph-name="left" unicode="&#xe875;" d="M700-150c6 0 13 2 18 7 9 10 9 26 0 36l-433 432 433 432c9 10 9 26 0 36s-26 9-36 0l-450-450c-9-10-9-26 0-36l450-450c5-5 12-7 18-7z" horiz-adv-x="1000" />

<glyph glyph-name="right" unicode="&#xe876;" d="M250-150c-6 0-13 2-18 7-9 10-9 26 0 36l433 432-433 432c-9 10-9 26 0 36s26 9 36 0l450-450c9-10 9-26 0-36l-450-450c-5-5-12-7-18-7z" horiz-adv-x="1000" />

<glyph glyph-name="cancel-circle" unicode="&#xe880;" d="M717 144l-204 181 204 181c10 10 11 25 2 36-9 10-25 11-36 2l-208-186-208 186c-11 9-26 8-36-2-9-11-8-26 2-36l204-181-204-181c-10-9-11-25-2-36 5-5 12-8 19-8 6 0 12 2 17 6l208 186 208-186c5-4 11-6 17-6 7 0 14 3 19 8 9 11 8 27-2 36z m-242-294c-127 0-246 49-336 139s-139 209-139 336c0 127 49 246 139 336s209 139 336 139c127 0 246-49 336-139s139-209 139-336-49-246-139-336c-90-90-209-139-336-139z m0 900c-234 0-425-191-425-425s191-425 425-425 425 191 425 425-191 425-425 425z" horiz-adv-x="1000" />

<glyph glyph-name="c-up" unicode="&#xe887;" d="M139 661c-90-90-139-209-139-336s49-246 139-336 209-139 336-139 246 49 336 139 139 209 139 336-49 246-139 336-209 139-336 139-246-49-336-139z m761-336c0-234-191-425-425-425s-425 191-425 425c0 234 191 425 425 425s425-191 425-425z m-150-75c0-6-2-13-7-18-10-9-26-9-36 0l-232 233-232-233c-10-9-26-9-36 0-9 10-9 26 0 36l250 250c10 9 26 9 36 0l250-250c5-5 7-12 7-18z" horiz-adv-x="1000" />

<glyph glyph-name="c-left" unicode="&#xe889;" d="M139 661c90 90 209 139 336 139s246-49 336-139 139-209 139-336-49-246-139-336-209-139-336-139-246 49-336 139-139 209-139 336 49 246 139 336z m336-761c234 0 425 191 425 425s-191 425-425 425c-234 0-425-191-425-425s191-425 425-425z m75 150c6 0 13 2 18 7 9 10 9 26 0 36l-233 232 233 232c9 10 9 26 0 36-10 9-26 9-36 0l-250-250c-9-10-9-26 0-36l250-250c5-5 12-7 18-7z" horiz-adv-x="1000" />

<glyph glyph-name="c-right" unicode="&#xe88a;" d="M811 661c-90 90-209 139-336 139s-246-49-336-139-139-209-139-336 49-246 139-336 209-139 336-139 246 49 336 139 139 209 139 336-49 246-139 336z m-336-761c-234 0-425 191-425 425s191 425 425 425c234 0 425-191 425-425s-191-425-425-425z m-75 150c-6 0-13 2-18 7-9 10-9 26 0 36l233 232-233 232c-9 10-9 26 0 36 10 9 26 9 36 0l250-250c9-10 9-26 0-36l-250-250c-5-5-12-7-18-7z" horiz-adv-x="1000" />

<glyph glyph-name="compare" unicode="&#xe88e;" d="M500 250c-3 0-7 1-10 2l-475 200c-9 4-15 13-15 23s6 19 15 23l475 200c7 3 14 3 20 0l475-200c9-4 15-13 15-23s-6-19-15-23l-475-200c-3-1-7-2-10-2z m-411 225l411-173 411 173-411 173-411-173z m411-375c-3 0-7 1-10 2l-475 200c-12 5-18 20-13 33s20 18 33 13l465-196 465 196c13 5 28-1 33-13 5-13-1-28-13-33l-475-200c-3-1-7-2-10-2z m0-150c-3 0-7 1-10 2l-475 200c-12 5-18 20-13 33s20 18 33 13l465-196 465 196c13 5 28-1 33-13 5-13-1-28-13-33l-475-200c-3-1-7-2-10-2z" horiz-adv-x="1000" />

<glyph glyph-name="delivery" unicode="&#xe8aa;" d="M967 199c-4 20-37 189-45 214-20 59-68 127-128 181-62 56-126 88-177 88h-488c-25 0-46-21-46-46v-72h-34c-12 0-22-10-22-22s10-23 22-23h34v-53h-60c-13 0-23-11-23-23 0-12 10-22 23-22h60v-226c0-25 21-46 46-46h56c8-56 56-98 114-98 58 0 106 42 115 98h206c8-56 56-98 114-98 58 0 106 42 115 98h73c25 0 45 21 45 46 0 1 0 3 0 4z m-90 207l-232 0v227c82-22 196-131 232-227z m-578-310c-39 0-70 31-70 70 0 39 31 71 70 71 39 0 71-32 71-71 0-39-32-70-71-70z m435 0c-39 0-71 31-71 70 0 39 32 71 71 71s71-32 71-71c0-39-32-70-71-70z m186 98c-18 0-73 0-73 0-13 50-58 88-113 88s-100-38-112-88h-210c-13 50-58 88-113 88-54 0-100-38-112-88h-58c-1 0-1 0-1 1v226h275c13 0 23 10 23 22 0 12-10 23-23 23h-275v53h127c12 0 22 10 22 23s-10 22-22 22h-127v72c0 1 0 1 1 1h471v-254c0-12 10-22 23-22l265 0c10-44 23-114 34-166 0-1 0-1-2-1z" horiz-adv-x="1000" />

<glyph glyph-name="viber-logo" unicode="&#xe8b9;" d="M879 738c-79 78-207 115-380 112-174-4-291-34-367-97-73-60-107-148-107-277v-132c0-152 81-320 237-345 18-3 35 9 38 27 3 18-9 35-27 38-118 19-182 159-182 280v132c0 185 68 301 410 308 154 3 266-28 332-93 51-50 76-121 76-215v-132c0-199-89-287-319-313h-163c-8 0-17-4-23-10l-115-115c-13-13-13-33 0-46 7-7 15-10 24-10 8 0 17 3 23 10l105 105h151c1 0 2 0 4 0 131 14 221 49 283 108 65 62 96 150 96 271v132c0 111-32 200-96 262z m-358-104c0 0 0 0 0 0 53 0 103-21 141-58 37-38 58-88 58-141 0-18 15-33 33-33 0 0 0 0 0 0 18 0 33 15 33 33 0 71-27 137-78 188-50 50-116 77-187 77 0 0 0 0 0 0-19 0-33-14-33-33 0-18 14-33 33-33z m0-116c46 0 83-37 83-83 0-18 15-33 33-33 18 0 33 15 33 33 0 82-67 149-149 149h0c-19 0-33-15-33-33 0-18 14-33 33-33z m-148-57c-16-10-19-30-9-46 10-15 31-18 46-8 12 8 39 27 37 65-1 23-21 55-38 78-25 34-46 55-64 61-16 6-33 6-50 0-35-12-61-33-74-62-13-28-13-61 1-94 31-78 76-146 132-203 57-56 125-100 203-132 17-7 33-10 49-10 16 0 31 3 44 9 29 14 51 39 63 75 6 17 5 34-1 50-6 17-26 38-60 63-24 17-56 38-79 39-38 2-57-26-65-38-10-15-6-35 9-46 15-10 36-6 46 9 4 5 6 8 7 9 18-6 71-45 81-60 0-1 0-2-1-5-4-12-12-29-27-36-14-6-30-2-41 2-70 29-131 69-181 118-50 50-90 111-118 181-5 11-8 27-2 41 7 15 23 23 35 28 3 0 5 0 6 0 14-9 53-62 59-81-1-1-3-3-8-7z" horiz-adv-x="1000" />

<glyph glyph-name="whatsapp-logo" unicode="&#xe8ba;" d="M500 850c-270 0-490-220-490-490 0-106 43-201 61-237 9-16 29-23 46-14 17 8 24 29 15 45-16 32-54 115-54 206 0 233 189 422 422 422 233 0 422-189 422-422 0-233-189-422-422-422-91 0-163 31-190 45-8 4-17 5-26 2l-214-69c-18-5-28-24-22-42 4-15 18-24 32-24 3 0 7 0 10 2l202 64c42-20 116-46 208-46 270 0 490 220 490 490 0 270-220 490-490 490z m-97-406c-14-12-17-33-6-48 12-15 33-18 48-6 10 8 38 29 34 67-2 23-25 54-43 76-26 32-49 51-66 57-17 5-34 4-50-3-35-14-60-37-71-66-11-29-9-61 6-94 35-75 83-139 141-192 0 0 0 0 1-1 59-52 128-92 207-119 15-5 30-8 44-8 17 0 34 4 49 12 28 15 49 42 59 78 4 17 3 34-4 50-7 17-28 37-63 60-24 16-58 34-81 34 0 0 0 0 0 0-38 0-56-30-63-41-9-16-4-37 12-47 16-10 37-5 47 11 2 5 4 7 5 8 19-5 71-39 81-53 0-1 0-2 0-4-4-12-10-28-24-35-14-7-29-4-40-1-70 24-132 60-184 106 0 0 0 0 0 0-52 47-94 105-126 172-5 10-9 25-4 39 6 15 21 23 33 28 2 1 3 1 4 1 15-9 54-57 62-75-1-1-3-3-8-6z" horiz-adv-x="1000" />

<glyph glyph-name="bars" unicode="&#xe8bd;" d="M155 850h-103c-19 0-35-15-35-34v-104c0-19 16-34 35-34h103c19 0 35 15 35 34v104c0 19-16 34-35 34z m-103-138v104l103 0 0-104-103 0z m896 138h-620c-19 0-35-15-35-34v-104c0-19 16-34 35-34h620c19 0 35 15 35 34v104c0 19-16 34-35 34z m-620-138v104l620 0 0-104-620 0z m-173-138h-103c-19 0-35-15-35-34v-104c0-19 16-34 35-34h103c19 0 35 15 35 34v104c0 19-16 34-35 34z m-103-138v104l103 0 0-104-103 0z m896 138h-620c-19 0-35-15-35-34v-104c0-19 16-34 35-34h620c19 0 35 15 35 34v104c0 19-16 34-35 34z m-620-138v104l620 0 0-104-620 0z m-173-138h-103c-19 0-35-15-35-34v-104c0-19 16-34 35-34h103c19 0 35 15 35 34v104c0 19-16 34-35 34z m-103-138v104l103 0 0-104-103 0z m896 138h-620c-19 0-35-15-35-34v-104c0-19 16-34 35-34h620c19 0 35 15 35 34v104c0 19-16 34-35 34z m-620-138v104l620 0 0-104-620 0z m-173-138h-103c-19 0-35-15-35-34v-104c0-19 16-34 35-34h103c19 0 35 15 35 34v104c0 19-16 34-35 34z m-103-138v104l103 0 0-104-103 0z m896 138h-620c-19 0-35-15-35-34v-104c0-19 16-34 35-34h620c19 0 35 15 35 34v104c0 19-16 34-35 34z m-620-138v104l620 0 0-104-620 0z" horiz-adv-x="1000" />

<glyph glyph-name="squares" unicode="&#xe8be;" d="M250 850h-200c-28 0-50-22-50-50v-200c0-28 22-50 50-50h200c28 0 50 22 50 50v200c0 28-22 50-50 50z m17-250c0-9-8-17-17-17h-200c-9 0-17 8-17 17v200c0 9 8 17 17 17h200c9 0 17-8 17-17v-200z m333 250h-200c-28 0-50-22-50-50v-200c0-28 22-50 50-50h200c28 0 50 22 50 50v200c0 28-22 50-50 50z m17-250c0-9-8-17-17-17h-200c-9 0-17 8-17 17v200c0 9 8 17 17 17h200c9 0 17-8 17-17v-200z m333 250h-200c-28 0-50-22-50-50v-200c0-28 22-50 50-50h200c28 0 50 22 50 50v200c0 28-22 50-50 50z m17-250c0-9-8-17-17-17h-200c-9 0-17 8-17 17v200c0 9 8 17 17 17h200c9 0 17-8 17-17v-200z m-717-100h-200c-28 0-50-22-50-50v-200c0-28 22-50 50-50h200c28 0 50 22 50 50v200c0 28-22 50-50 50z m17-250c0-9-8-17-17-17h-200c-9 0-17 8-17 17v200c0 9 8 17 17 17h200c9 0 17-8 17-17v-200z m333 250h-200c-28 0-50-22-50-50v-200c0-28 22-50 50-50h200c28 0 50 22 50 50v200c0 28-22 50-50 50z m17-250c0-9-8-17-17-17h-200c-9 0-17 8-17 17v200c0 9 8 17 17 17h200c9 0 17-8 17-17v-200z m333 250h-200c-28 0-50-22-50-50v-200c0-28 22-50 50-50h200c28 0 50 22 50 50v200c0 28-22 50-50 50z m17-250c0-9-8-17-17-17h-200c-9 0-17 8-17 17v200c0 9 8 17 17 17h200c9 0 17-8 17-17v-200z m-717-100h-200c-28 0-50-22-50-50v-200c0-28 22-50 50-50h200c28 0 50 22 50 50v200c0 28-22 50-50 50z m17-250c0-9-8-17-17-17h-200c-9 0-17 8-17 17v200c0 9 8 17 17 17h200c9 0 17-8 17-17v-200z m333 250h-200c-28 0-50-22-50-50v-200c0-28 22-50 50-50h200c28 0 50 22 50 50v200c0 28-22 50-50 50z m17-250l0 0c0-9-8-17-17-17h-200c-9 0-17 8-17 17v200c0 9 8 17 17 17h200c9 0 17-8 17-17v-200z m333 250h-200c-28 0-50-22-50-50v-200c0-28 22-50 50-50h200c28 0 50 22 50 50v200c0 28-22 50-50 50z m17-250c0-9-8-17-17-17h-200c-9 0-17 8-17 17v200c0 9 8 17 17 17h200c9 0 17-8 17-17v-200z" horiz-adv-x="1000" />

<glyph glyph-name="thumbnails" unicode="&#xe8c0;" d="M250 850h-200c-28 0-50-22-50-50v-200c0-28 22-50 50-50h200c28 0 50 22 50 50v200c0 28-22 50-50 50z m17-250c0-9-8-17-17-17h-200c-9 0-17 8-17 17v200c0 9 8 17 17 17h200c9 0 17-8 17-17v-200z m-17-100h-200c-28 0-50-22-50-50v-200c0-28 22-50 50-50h200c28 0 50 22 50 50v200c0 28-22 50-50 50z m17-250c0-9-8-17-17-17h-200c-9 0-17 8-17 17v200c0 9 8 17 17 17h200c9 0 17-8 17-17v-200z m-17-100h-200c-28 0-50-22-50-50v-200c0-28 22-50 50-50h200c28 0 50 22 50 50v200c0 28-22 50-50 50z m17-250c0-9-8-17-17-17h-200c-9 0-17 8-17 17v200c0 9 8 17 17 17h200c9 0 17-8 17-17v-200z m100 867h633v-34h-633z m0-100h633v-34h-633z m0-250h633v-34h-633z m0-100h633v-34h-633z m0-250h633v-34h-633z m0-100h633v-34h-633z" horiz-adv-x="1000" />

<glyph glyph-name="cancel-button" unicode="&#xe8c1;" d="M887 850h-774c-62 0-113-50-113-113v-774c0-63 51-113 113-113h774c63 0 113 50 113 113v774c0 63-50 113-113 113z m43-887c0-24-19-43-43-43h-774c-24 0-43 19-43 43v774c0 24 19 43 43 43h774c24 0 43-19 43-43v-774z m-256 387l141 142c14 13 14 36 0 49l-124 125c-7 6-16 10-25 10-9 0-18-4-25-10l-141-142-141 142c-7 6-16 10-25 10-9 0-18-4-25-10l-124-125c-14-13-14-36 0-49l141-142-141-141c-14-14-14-36 0-50l124-125c7-6 16-10 25-10h0c9 0 18 4 25 10l141 142 141-141c7-7 16-11 25-11 9 0 18 4 25 11l124 124c14 14 14 36 0 50l-141 141z m-8-241l-141 142c-7 6-16 10-25 10-9 0-18-4-25-10l-141-142-74 75 141 141c14 14 14 36 0 50l-141 141 74 75 141-141c7-7 16-11 25-11 9 0 18 4 25 11l141 141 74-75-141-141c-13-14-13-36 0-50l141-141-74-75z" horiz-adv-x="1000" />

<glyph glyph-name="check-square" unicode="&#xe8c2;" d="M887 850h-774c-62 0-113-50-113-113v-774c0-63 51-113 113-113h774c63 0 113 50 113 113v774c0 63-50 113-113 113z m43-887c0-24-19-43-43-43h-774c-24 0-43 19-43 43v774c0 24 19 43 43 43h774c24 0 43-19 43-43v-774z m-189 706c-6 7-15 11-25 11-9 0-18-4-25-11l-281-281-101 101c-7 7-16 11-25 11-10 0-18-4-25-11l-141-141c-14-14-14-36 0-50l267-267c7-7 16-11 25-11 9 0 18 4 25 11l447 447c14 14 14 36 0 50l-141 141z m-331-564l-218 218 92 92 101-102c7-6 16-10 25-10 9 0 18 4 25 10l281 282 92-92-398-398z" horiz-adv-x="1000" />

<glyph glyph-name="clock" unicode="&#xe8c3;" d="M500 687c12 0 22 10 22 22v11c0 12-10 21-22 21s-22-9-22-21v-11c0-12 10-22 22-22z m0-674c-12 0-22-10-22-22v-11c0-12 10-21 22-21s22 9 22 21v11c0 12-10 22-22 22z m-359 359h-11c-11 0-21-10-21-22s10-22 21-22h11c12 0 22 10 22 22s-10 22-22 22z m729 0h-11c-12 0-22-10-22-22s10-22 22-22h11c12 0 21 10 21 22s-9 22-21 22z m-616 254c-8 9-21 9-30 0-9-9-9-22 0-30l8-8c4-4 9-6 15-6s11 2 15 6c9 9 9 22 0 31l-8 7z m-22-514l-8-8c-9-8-9-21 0-30 4-4 10-7 15-7s11 3 15 7l8 8c9 8 9 21 0 30s-22 9-30 0z m514 514l-8-7c-9-9-9-22 0-31 4-4 10-6 15-6s11 2 16 6l7 8c9 8 9 21 0 30-9 9-22 9-30 0z m-224-267v198c0 12-10 21-22 21s-22-9-22-21v-207c0-5 2-11 7-15l238-238c4-5 10-7 15-7s11 2 15 7c9 8 9 22 0 30l-231 232z m-22 491c-276 0-500-224-500-500s224-500 500-500 500 224 500 500-224 500-500 500z m0-957c-252 0-456 205-456 457s204 457 456 457 457-205 457-457-205-457-457-457z" horiz-adv-x="1000" />

<glyph glyph-name="pin" unicode="&#xe8c4;" d="M503 631c-70 0-128-57-128-128s58-128 128-128 128 58 128 128-57 128-128 128z m0-219c-50 0-91 41-91 91s41 91 91 91 92-41 92-91-41-91-92-91z m245 335c-66 67-154 103-248 103-93 0-181-36-248-103-122-122-137-352-33-492l281-405 280 405c105 140 90 370-32 492z m3-471l-251-362-251 363c-95 126-81 334 29 445 60 59 138 92 222 92s163-33 222-92c110-111 124-319 29-446z" horiz-adv-x="1000" />

<glyph glyph-name="twitter" unicode="&#xf099;" d="M904 622q-37-54-90-93 0-8 0-23 0-73-21-145t-64-139-103-117-144-82-181-30q-151 0-276 81 19-2 43-2 126 0 224 77-59 1-105 36t-64 89q19-3 34-3 24 0 48 6-63 13-104 62t-41 115v2q38-21 82-23-37 25-59 64t-22 86q0 49 25 91 68-83 164-133t208-55q-5 21-5 41 0 75 53 127t127 53q79 0 132-57 61 12 115 44-21-64-80-100 52 6 104 28z" horiz-adv-x="928.6" />

<glyph glyph-name="youtube-play" unicode="&#xf16a;" d="M397 221l270 139-270 141v-280z m103 481q94 0 181-3t128-5l41-2q0 0 9-1t13-2 13-2 16-5 16-7 17-11 16-15q4-3 9-10t16-33 15-56q4-36 7-76t3-64v-98q1-81-10-162-4-30-14-55t-18-35l-8-9q-7-8-16-15t-17-10-16-7-16-5-13-2-13-2-9-1q-140-11-350-11-115 2-201 4t-111 4l-28 3-20 2q-20 3-30 5t-29 12-31 23q-4 3-9 10t-16 33-15 56q-4 36-7 76t-3 64v98q-1 81 10 162 4 31 14 55t18 35l8 9q8 9 16 15t17 11 16 7 16 5 13 2 13 2 9 1q140 10 350 10z" horiz-adv-x="1000" />

<glyph glyph-name="instagram" unicode="&#xf16d;" d="M571 350q0 59-41 101t-101 42-101-42-42-101 42-101 101-42 101 42 41 101z m77 0q0-91-64-156t-155-64-156 64-64 156 64 156 156 64 155-64 64-156z m61 229q0-21-15-36t-37-15-36 15-15 36 15 36 36 15 37-15 15-36z m-280 123q-4 0-43 0t-59 0-54-2-57-5-40-11q-28-11-49-32t-33-49q-6-16-10-40t-6-58-1-53 0-59 0-43 0-43 0-59 1-53 6-58 10-40q12-28 33-49t49-32q16-6 40-11t57-5 54-2 59 0 43 0 42 0 59 0 54 2 58 5 39 11q28 11 50 32t32 49q6 16 10 40t6 58 1 53 0 59 0 43 0 43 0 59-1 53-6 58-10 40q-11 28-32 49t-50 32q-16 6-39 11t-58 5-54 2-59 0-42 0z m428-352q0-128-3-177-5-116-69-180t-179-69q-50-3-177-3t-177 3q-116 6-180 69t-69 180q-3 49-3 177t3 177q5 116 69 180t180 69q49 3 177 3t177-3q116-6 179-69t69-180q3-49 3-177z" horiz-adv-x="857.1" />

<glyph glyph-name="apple" unicode="&#xf179;" d="M777 172q-21-70-68-139-72-110-144-110-27 0-78 18-48 18-84 18-34 0-79-19-45-19-74-19-85 0-168 145-82 146-82 281 0 127 63 208 63 81 159 81 40 0 98-17 58-17 77-17 25 0 80 19 57 19 97 19 66 0 119-36 29-20 58-56-44-37-64-66-36-52-36-115 0-69 38-125t88-70z m-209 655q0-34-17-76-16-42-52-77-30-30-60-40-20-7-58-10 2 83 44 143 41 60 139 83 1-2 2-6t1-6q0-2 0-6t1-5z" horiz-adv-x="785.7" />

<glyph glyph-name="android" unicode="&#xf17b;" d="M275 581q9 0 16 6t6 15-6 16-16 6-15-6-6-16 6-15 15-6z m236 0q9 0 15 6t6 15-6 16-15 6-16-6-6-16 6-15 16-6z m-453-103q23 0 40-17t16-40v-240q0-24-16-41t-40-17-41 17-17 41v240q0 23 17 40t41 17z m591-11v-371q0-26-18-44t-43-18h-42v-127q0-24-16-40t-41-17-41 17-17 40v127h-77v-127q0-24-16-40t-41-17q-24 0-40 17t-17 40l-1 127h-41q-26 0-43 18t-18 44v371h512z m-129 226q59-30 95-85t36-121h-516q0 66 35 121t96 85l-39 73q-4 8 2 12 8 3 12-4l40-74q53 24 112 24t112-24l40 74q4 7 11 4 7-4 3-12z m266-272v-240q0-24-17-41t-41-17q-23 0-40 17t-17 41v240q0 24 17 40t40 17q24 0 41-17t17-40z" horiz-adv-x="785.7" />

<glyph glyph-name="skype" unicode="&#xf17e;" d="M655 257q0 28-11 51t-27 38-41 27-46 19-49 13l-58 14q-17 4-25 6t-19 6-17 9-9 12-4 16q0 43 80 43 24 0 43-6t30-16 21-19 23-16 27-7q26 0 42 18t16 43q0 31-32 55t-79 38-101 13q-38 0-74-9t-67-26-49-48-19-72q0-34 10-60t32-42 44-27 58-18l81-20q51-12 63-20 18-11 18-34 0-21-23-36t-58-14q-29 0-51 9t-37 22-25 25-26 21-30 9q-28 0-42-17t-14-41q0-52 68-88t162-37q41 0 78 10t69 30 49 52 19 74z m202-121q0-89-63-152t-151-63q-73 0-131 45-43-9-83-9-80 0-153 31t-126 84-83 125-31 153q0 41 9 84-45 58-45 130 0 89 63 152t151 63q73 0 131-45 43 9 84 9 79 0 152-31t126-84 84-125 30-153q0-41-8-84 44-58 44-130z" horiz-adv-x="857.1" />

<glyph glyph-name="odnoklassniki" unicode="&#xf264;" d="M517 526q0-36-26-62t-62-26-63 26-26 62 26 63 63 26 62-26 26-63z m120-202q-6 11-16 18t-26 5-34-15q-6-5-16-12t-46-17-70-12-70 11-48 20l-15 10q-17 14-33 15t-27-5-16-18q-12-25-1-42t49-41q46-29 126-37l-28-29q-80-79-107-106-12-12-12-29t12-30l5-5q12-12 29-12t30 12l106 107q64-64 107-107 12-12 29-12t29 12l5 5q13 12 13 30t-13 29l-106 106-29 29q78 8 125 37 38 25 49 41t-1 42z m-28 202q0 75-53 128t-127 53-128-53-53-128 53-127 128-53 127 53 53 127z m248 92v-536q0-66-47-113t-114-48h-535q-67 0-114 48t-47 113v536q0 66 47 113t114 48h535q67 0 114-48t47-113z" horiz-adv-x="857.1" />

<glyph glyph-name="snapchat-ghost" unicode="&#xf2ac;" d="M473 779q75 0 134-39t92-107q15-32 15-100 0-26-5-106 8-4 15-4 10 0 29 7t28 8q16 0 32-10t15-26q0-18-18-30t-38-18-39-16-18-26q0-9 7-24 21-46 57-84t81-57q16-6 45-12 15-4 15-20 0-39-122-57-4-6-6-22t-8-26-18-10q-11 0-35 3t-36 4q-20 0-34-3-18-3-35-13t-33-21-32-22-43-19-55-8q-29 0-54 8t-41 19-33 22-32 21-35 13q-14 3-35 3-13 0-36-4t-33-5q-14 0-19 11t-8 26-6 23q-123 18-123 57 0 16 16 20 29 6 45 12 43 18 80 57t58 84q6 15 6 24 0 15-17 26t-39 17-39 17-18 29q0 15 15 26t31 10q8 0 26-7t30-7q10 0 18 4-5 79-5 106 0 68 15 100 36 76 96 110t147 36z" horiz-adv-x="928.6" />

<glyph glyph-name="facebook-squared" unicode="&#xf308;" d="M696 779q67 0 114-48t47-113v-536q0-66-47-113t-114-48h-104v333h111l16 129h-127v83q0 31 13 46t51 16l68 1v115q-35 5-100 5-75 0-121-44t-45-127v-95h-112v-129h112v-333h-297q-67 0-114 48t-47 113v536q0 66 47 113t114 48h535z" horiz-adv-x="857.1" />

<glyph glyph-name="vkontakte" unicode="&#xf354;" d="M532 302q26-16 26-48 0-36-24-50-14-10-62-10l-52 0 0 116 58 0q38 0 54-8z m-22 100q-14-10-56-10l-34 0 0 102 26 0q50 0 60-6 24-14 24-42t-20-44z m282 428q70 0 119-49t49-119l0-622q0-70-49-120t-119-50l-624 0q-70 0-119 50t-49 120l0 622q0 70 49 119t119 49l624 0z m-286-724q84 0 125 42t41 102q0 96-96 116l0 2q68 22 68 102 0 50-35 79t-85 29l-214 0 0-472 196 0z" horiz-adv-x="960" />
</font>
</defs>
</svg>
